#TITLE:Reality -SHD Mix-;
#SUBTITLE:~Quattro!!! re-edit~;
#ARTIST:The Berzerker;
#TITLETRANSLIT:;
#SUBTITLETRANSLIT:;
#ARTISTTRANSLIT:;
#CREDIT:;
#BANNER:reality shd mix-banner.jpg;
#BACKGROUND:reality SHD mix-bg.jpg;
#LYRICSPATH:;
#CDTITLE:quattro!!!cdtittle.png;
#MUSIC:Berzerker -  Reality.mp3;
#OFFSET:0.040;
#SAMPLESTART:30.100;
#SAMPLELENGTH:12.500;
#SELECTABLE:YES;
#BPMS:0.000=259.000;
#STOPS:;
#BGCHANGES:;
// cache tags:
#FIRSTBEAT:43.000;
#LASTBEAT:339.000;
#SONGFILENAME:Songs/Chilean Keyboard Megapack 3/(Quattro!!!) Reality -SHD mix-/Reality.sm;
#HASMUSIC:1;
#HASBANNER:1;
#MUSICLENGTH:80.694;
// end cache tags

//---------------dance-single - ----------------
#NOTES:
     dance-single:
     :
     Challenge:
     15:
     1.000,1.000,1.000,0.235,1.000,717.000,203.000,19.000,0.000,34.000:
0000
0000
0000
0000
,
0000
0000
0000
0000
,
0000
0000
0000
0000
,
0000
0000
0000
0000
,
0000
0000
0000
0000
,
0000
0000
0000
0000
,
0000
0000
0000
0000
,
0000
0000
0000
0000
,
0000
0000
0000
0000
,
0000
0000
0000
0000
,
0000
0000
0000
2002
,
0000
0000
0000
0000
,
0000
3003
1100
0011
,
0110
1001
1100
0110
,
0011
0000
0000
0000
1100
0011
1100
0011
1100
0000
0000
0000
0000
0000
0000
0000
,
0011
0000
0000
0000
1100
0110
0011
0101
,
1010
0001
0010
0100
1001
0000
0000
0000
1001
0000
0010
0000
1001
0000
0100
0000
,
1001
0010
1001
0100
1001
0010
1001
0100
,
1001
0000
0010
0000
1001
0000
0100
0000
1001
0100
0010
0000
1001
0000
0100
0000
,
1001
0010
1001
0100
2001
0100
0010
0001
,
0010
0000
3010
0001
1100
0000
0000
0000
0011
0000
1000
0000
0011
0000
0100
0000
,
0011
1000
0011
0100
0011
1000
0011
0100
,
0011
0000
1000
0000
0011
0000
0100
0000
0011
0000
1000
0100
0011
0000
0100
0000
,
0011
1000
0011
0100
0012
0100
1000
0100
,
0010
0000
0103
1000
0110
0000
0000
0000
0110
0000
0001
0000
0110
0000
1000
0000
,
0110
0001
0110
1000
0110
0001
0110
1000
,
0110
0001
0110
1000
0110
0001
0110
1000
,
0110
0001
0110
1000
0220
0000
0001
1000
,
0001
1330
0001
1000
0001
0010
0100
1000
,
0100
0010
0001
0010
0100
0010
0001
1000
,
0100
0010
0100
1000
0100
0010
0001
0010
,
0100
0010
0001
0010
0100
1000
0100
1000
,
0011
1100
0011
1100
0011
1100
0011
1100
0012
0000
0000
0000
1000
0000
0000
0000
,
0100
0010
0100
1000
,
0103
0000
0000
0000
0110
1001
0110
1001
0000
0000
0000
0000
0000
0000
0000
0000
,
0110
0000
0000
0000
1100
0110
0011
0101
,
1010
0101
1010
0101
1010
0000
0000
0000
1000
0100
1000
0100
1000
0100
1000
0100
,
1000
0100
0010
0100
0010
0100
0010
0100
0010
0001
0010
0001
0010
0001
0010
0001
,
1000
0001
1000
0001
1000
0001
1000
0100
0010
0001
0010
0100
0010
0001
0010
0100
,
1000
0100
0010
0001
0010
0100
1000
0100
0010
0100
1000
0100
0010
0100
0010
0100
,
0010
0100
0010
0100
0010
0100
0010
0100
0011
0000
0000
0000
1110
0000
0000
0000
,
0111
1011
0111
1011
,
1110
0111
1101
0111
,
1011
1110
1101
1011
,
0222
0333
1110
0111
,
1101
1101
1101
0111
,
1110
0111
0111
1110
,
1101
0111
1110
1101
,
2220
0000
0000
0000
0000
0000
0000
3330
0001
1000
0001
1000
0001
1000
0001
1000
,
0001
0010
0100
0010
0100
0010
0100
0010
0100
1000
0100
1000
0100
1000
0100
1000
,
0100
0010
0100
0010
0100
0010
0100
0010
0100
1000
0100
1000
0100
1000
0100
1000
,
0100
0010
0100
0010
0100
0010
0100
0010
0001
1000
0001
1000
0001
1000
0001
1000
,
0001
0010
0100
0010
0100
0010
0100
0010
0100
1000
0100
1000
0100
0010
0001
0010
,
0100
1000
0100
0010
0001
0010
0100
0010
0001
1000
0100
0010
0100
1000
0100
0010
,
0001
0010
0100
0010
0001
1000
0100
0010
0100
1000
0100
0010
0001
0010
0100
0010
,
0001
1000
0001
1000
0001
1000
0001
0010
0100
0010
0100
0010
0100
1000
0100
1000
,
0100
1000
0100
0010
0001
1000
0001
1000
0001
0000
0000
0000
0011
0000
1001
0000
,
0101
0011
0011
0101
1001
0101
0011
0101
,
0011
0011
0101
0011
1001
0101
0011
0101
,
1001
0101
0011
0101
1001
0101
0011
0101
,
1001
0011
0101
1001
0000
1100
1010
1001
,
1010
1100
1010
1001
1010
1100
1010
1001
,
1010
1100
1010
1001
1010
1100
1010
1001
,
1010
1100
1010
1001
1010
1100
1010
1001
,
1010
1100
1010
1001
2020
0000
0000
0000
,
3030
0000
0000
0000
1100
0011
1100
0011
1100
0000
0000
0000
0000
0000
0000
0000
,
0000
0000
0011
1100
0011
1100
0011
1100
0000
0000
0000
0000
0000
0000
0000
0000
,
0000
0000
0000
0000
1100
0010
1100
0000
0110
0000
0011
0100
0011
0000
0110
0000
,
1100
0010
1100
0010
1100
0000
0000
0000
1000
0100
0010
0001
0010
0100
0010
0001
,
1000
0100
0010
0001
0010
0100
1000
0100
0010
0001
0010
0100
0010
0001
1000
0100
,
0010
0100
1000
0100
0010
0001
0010
0100
0010
0001
1000
0100
0010
0100
1000
0100
,
0010
0001
1000
0001
1000
0001
0010
0100
1000
0001
1000
0001
1000
0100
0010
0001
,
0010
0100
1000
0100
0010
0001
0010
0100
0010
0001
1000
0100
0010
0100
1000
0100
,
0010
0100
0010
0100
0010
0100
0010
0001
0010
0001
0010
0001
0010
0001
1000
0001
,
1000
0001
1000
0001
1000
0100
0010
0001
0010
0100
0010
0001
1000
0100
0010
0100
,
1000
0100
0010
0100
0010
0100
0010
0100
0010
0001
0010
0001
0010
0001
0010
0001
,
1000
0001
1000
0001
1000
0001
1000
0001
0010
0100
1000
0100
0010
0001
0010
0100
,
0010
0001
1000
0100
0010
0100
1000
0100
0010
0001
0010
0100
0010
0001
1000
0100
,
0010
0100
1000
0100
0010
0001
0010
0100
0010
0001
1000
0100
0010
0100
1000
0100
,
0010
0001
0010
0100
0010
0001
1000
0100
0010
0001
0010
0100
1000
0100
0010
0001
,
0010
0100
0010
0100
0010
0100
0010
0001
0010
0001
0010
0001
0010
0001
1000
0001
,
1000
0001
1000
0001
1000
0100
0010
0001
0010
0100
1000
0100
0010
0001
0010
0100
,
0010
0001
1000
0100
0010
0100
1000
0100
0011
0000
0000
0000
1010
0000
0000
0000
,
0101
0011
1100
0011
,
2222
0000
0000
3333
;
